Mostrando las entradas con la etiqueta ññ_maldon7. Mostrar todas las entradas
Mostrando las entradas con la etiqueta ññ_maldon7. Mostrar todas las entradas

lunes, 29 de octubre de 2012

CUENTA ATRÁS - Serie




Serie de TV (2007-2008). 2 temporadas. 29 episodios. Con un reloj corriendo en contra, cada episodio de "Cuenta atrás" arranca con una escena de alta tensión cuya resolución queda en suspenso hasta el final, cuando el reloj vuelve a marcar la hora de inicio. Entre ambas escenas, se desarrolla la trama, mediante flashbacks, hasta llegar de nuevo a la situación inicial y con ella al desenlace. Todo lo que sucede está situado en el tiempo mediante un código horario que describe cuánto falta (días, horas o minutos) para llegar a la resolución del caso



Título: Cuenta atrás
País: España
Año: 2007
Género: Drama
Temporadas: 2
Episodios: 29
Duración: 1 hora aprox. cada episodio
Director: Pablo Barrera, Guillermo Fernández Groizard, Sandra Gallego
Guión: Manuel Valdivia, Chus Vallejo, Caridad Fernández, María Cortés, César Vidal
Productora: Globomedia 7 Cuatro




Dani Martín (Corso)
Bárbara Lennie (Leo)
Álex González (Mario)
Teresa Hurtado de Ory (Rocío)
José Ángel Egido (Molina)




Corso (Dani Martín) es el jefe de la Unidad Policial de Cuenta atrás. El equipo lo completa Mario (Álex González), gran amigo de Corso; Leo (Bárbara Lennie), rebelde e impulsiva; Rocío (Teresa Hurtado de Ory), la negociadora del grupo, y Molina (José Angel Egido), un veterano agente. Ellos son el grupo policial de "Cuenta atrás".

En cada capítulo, la unidad deberá resolver casos al límite, enfrentándose a situaciones dramáticas excepcionales: bien colectivas, por el número de víctimas implicadas, como secuestros (un avión, un autobús, escolares rehenes en un colegio) o individuales, como la amenaza que pesa sobre una mujer testigo de un asesinato o la búsqueda de un violador reincidente para evitar que vuelva a actuar.




Cuenta atrás-1x01.avi
Format : AVI
Format/Info : Audio Video Interleave
File size : 600 MiB
Duration : 52mn 12s
Overall bit rate : 1 606 Kbps
Writing application : VirtualDubMod 1.5.10.2 (build 2540/release)
Writing library : VirtualDubMod build 2540/release

Video
ID : 0
Format : MPEG-4 Visual
Format profile : Advanced Simple@L5
Format settings, BVOP : 2
Format settings, QPel : No
Format settings, GMC : No warppoints
Format settings, Matrix : Default (H.263)
Codec ID : XVID
Codec ID/Hint : XviD
Duration : 52mn 12s
Bit rate : 1 404 Kbps
Width : 640 pixels
Height : 360 pixels
Display aspect ratio : 16:9
Frame rate : 25.000 fps
Color space : YUV
Chroma subsampling : 4:2:0
Bit depth : 8 bits
Scan type : Progressive
Compression mode : Lossy
Bits/(Pixel*Frame) : 0.244
Stream size : 524 MiB (87%)
Writing library : XviD 1.1.0 (UTC 2005-11-22)

Audio
ID : 1
Format : MPEG Audio
Format version : Version 1
Format profile : Layer 3
Mode : Joint stereo
Mode extension : MS Stereo
Codec ID : 55
Codec ID/Hint : MP3
Duration : 52mn 12s
Bit rate mode : Constant
Bit rate : 192 Kbps
Channel(s) : 2 channels
Sampling rate : 48.0 KHz
Compression mode : Lossy
Stream size : 71.7 MiB (12%)
Alignment : Aligned on interleaves
Interleave, duration : 40 ms (1.00 video frame)
Interleave, preload duration : 504 ms
Writing library : LAME3.96r
Encoding settings : -m j -V 4 -q 3 -lowpass 19.5 -b 192
















































MALDON7


Related Posts Plugin for WordPress, Blogger...

Entradas populares

Cuando publiques no olvides hacer Seguimiento


sólo necesitas dos clicks


uno en





y otro en




así podrás hacer seguimiento sin un comentario inicial